<?xml version="1.0" encoding="UTF-8"?>
<!DOCTYPE svg  PUBLIC '-//W3C//DTD SVG 1.1//EN'  'http://www.w3.org/Graphics/SVG/1.1/DTD/svg11.dtd'>
<svg version="1.1" xmlns="http://www.w3.org/2000/svg">
<defs>
<font id="ITCAvantGardePro-Bold" horiz-adv-x="618">
<font-face font-family="ITC Avant Garde Pro Md" font-weight="700" ascent="740" bbox="-64 -271 1059 1017" cap-height="740" descent="-260" panose-1="2 0 5 3 5 0 0 2 0 4" underline-position="-100" underline-thickness="50" unicode-range="U+0020-00FE" units-per-em="1000" x-height="555"/>
<missing-glyph/>
<glyph glyph-name="space" horiz-adv-x="309" unicode=" "/>
<glyph d="M252 244h-171v496h171v-496zM252 0h-171v170h171v-170z" glyph-name="exclam" horiz-adv-x="333" unicode="!"/>
<glyph d="M429 740l-34 -297h-107l-33 297h174zM208 740l-34 -297h-107l-33 297h174z" glyph-name="quotedbl" horiz-adv-x="463" unicode='"'/>
<glyph d="M588 514l-15 -111h-112l-10 -73h111l-15 -111h-112l-24 -174h-113l24 174h-78l-24 -174h-114l24 174h-99l15 111h100l10 73h-100l15 111h100l22 158h114l-22 -158h78l22 158h114l-22 -158h111zM348 403h-78l-10 -73h78z" glyph-name="numbersign" unicode="#"/>
<glyph d="M538 232q0 -104 -87 -168q-32 -22 -70 -35v-105h-135v101q-74 16 -113 57q-5 6 -9 11q-44 55 -44 131h171q3 -56 42 -69q9 -2 17 -2q36 0 51 33q6 13 6 26q0 45 -60 75q-15 7 -48 20q-88 35 -122 68q-51 51 -51 133q0 123 104 180q26 14 56 22v101h135v-101 q93 -22 126 -107q13 -37 13 -78v-5h-155q-5 62 -55 63q-37 0 -50 -34q-4 -11 -4 -22q0 -50 86 -85q10 -4 29 -11q14 -5 20 -7q115 -45 141 -142q6 -24 6 -50z" glyph-name="dollar" horiz-adv-x="986" unicode="$"/>
<glyph d="M822 166q0 -85 -66 -140q-50 -41 -114 -41q-86 0 -140 66q-41 51 -41 115q0 86 66 140q51 41 115 41q85 0 139 -66q41 -51 41 -115zM638 740l-307 -740h-115l306 740h116zM396 574q0 -84 -65 -139q-51 -41 -115 -41q-84 0 -139 65q-41 51 -41 115q0 85 65 140 q51 41 115 41q86 0 140 -67q40 -51 40 -114zM711 166q0 41 -36 61q-16 9 -33 9q-43 0 -62 -38q-8 -15 -8 -32q0 -41 37 -61q16 -9 33 -9q41 0 61 37q8 16 8 33zM285 575q0 42 -37 61q-16 8 -32 8q-43 0 -61 -38q-8 -15 -8 -32q0 -40 36 -60q16 -9 33 -9q41 0 61 37 q8 16 8 33z" glyph-name="percent" horiz-adv-x="858" unicode="%"/>
<glyph d="M729 435l-57 -137q-25 -57 -56 -98l101 -104l-113 -111l-87 90q-105 -90 -221 -90q-105 0 -179 66q-67 61 -68 149q0 95 90 169q20 16 47 34q-70 72 -70 160q0 94 77 150q57 41 128 41q94 0 151 -65q43 -50 43 -117q-1 -99 -102 -170l87 -88l54 121h175zM365 573 q0 38 -31 46q-6 1 -12 1q-34 0 -43 -33q-2 -8 -2 -16q1 -37 42 -80q41 41 45 71q1 6 1 11zM406 184l-118 119q-49 -39 -56 -72q-1 -7 -1 -14q0 -50 51 -68q16 -5 34 -5q56 1 90 40z" glyph-name="ampersand" horiz-adv-x="758" unicode="&amp;"/>
<glyph d="M208 740l-34 -297h-107l-33 297h174z" glyph-name="quotesingle" horiz-adv-x="242" unicode="'"/>
<glyph d="M430 -264q-194 73 -292 238q-73 123 -73 271q0 217 148 369q90 91 217 140v-174q-104 -58 -153 -189q-27 -74 -27 -148q0 -129 73 -235q46 -65 107 -99v-173z" glyph-name="parenleft" horiz-adv-x="473" unicode="("/>
<glyph d="M408 244q0 -215 -145 -366q-91 -94 -220 -142v173q104 58 153 189q27 74 27 148q0 129 -73 235q-46 65 -107 99v174q194 -73 291 -237q74 -124 74 -273z" glyph-name="parenright" horiz-adv-x="473" unicode=")"/>
<glyph d="M555 539l-131 -41l83 -110l-93 -70l-82 115l-79 -115l-93 70l86 110l-131 41l36 109l128 -48l-3 140h119l-7 -140l129 48z" glyph-name="asterisk" horiz-adv-x="670" unicode="*"/>
<glyph d="M552 173h-172v-173h-160v173h-172v160h172v173h160v-173h172v-160z" glyph-name="plus" horiz-adv-x="600" unicode="+"/>
<glyph d="M244 -40q0 -72 -47 -104q-24 -17 -55 -17h-71v89q47 0 59 6q18 10 19 32v34h-78v170h173v-210z" glyph-name="comma" horiz-adv-x="314" unicode=","/>
<glyph d="M281 207h-281v163h281v-163z" glyph-name="hyphen" horiz-adv-x="281" unicode="-"/>
<glyph d="M244 0h-173v170h173v-170z" glyph-name="period" horiz-adv-x="314" unicode="."/>
<glyph d="M521 740l-264 -840h-185l265 840h184z" glyph-name="slash" horiz-adv-x="593" unicode="/"/>
<glyph d="M585 267q0 -160 -117 -235q-16 -11 -34 -19q-58 -27 -122 -27q-58 0 -113 23q-135 56 -161 197q-5 30 -5 61v206q0 161 121 236q22 13 46 23q57 22 112 22q57 0 113 -24q137 -60 157 -211q3 -23 3 -46v-206zM396 262v216q-2 109 -87 110q-71 0 -84 -79q-3 -15 -3 -31 v-216q0 -91 63 -107q12 -3 24 -3q86 2 87 110z" glyph-name="zero" unicode="0"/>
<glyph d="M414 0h-189v581h-121v159h310v-740z" glyph-name="one" unicode="1"/>
<glyph d="M573 0h-522v147q142 92 211 164q8 8 15 16q101 112 102 189q0 51 -42 67q-14 5 -28 5q-78 -1 -85 -117h-180q3 103 39 162q3 5 5 8q61 95 187 110q21 3 41 3q127 0 199 -79q21 -23 34 -51q19 -43 19 -85q0 -142 -154 -295q-34 -34 -92 -85h251v-159z" glyph-name="two" unicode="2"/>
<glyph d="M579 218q0 -109 -98 -177q-79 -55 -176 -55q-109 0 -185 57q-28 21 -46 47q-32 50 -41 131h191q17 -68 86 -69q61 0 76 55q4 13 4 28q0 70 -97 75h-69v139q73 0 98 16q26 19 27 58q0 49 -34 62q-9 3 -18 3q-56 -2 -58 -64h-186q2 127 102 190q65 40 151 40q104 0 173 -65 q59 -56 59 -137q-1 -102 -98 -155q132 -45 139 -167v-12z" glyph-name="three" unicode="3"/>
<glyph d="M604 130h-82v-130h-181v130h-326v138l331 472h176v-462h82v-148zM353 278v232h-2l-146 -232h148z" glyph-name="four" unicode="4"/>
<glyph d="M592 254q0 -54 -22 -104q-52 -121 -179 -155q-40 -10 -83 -10q-132 0 -214 82q-53 54 -68 131h190q34 -45 87 -46q54 0 84 45q16 25 16 53q0 59 -51 85q-23 12 -50 12q-69 -1 -97 -64l-153 38l64 419h409v-159h-264l-16 -101q41 22 100 22q132 0 201 -101q15 -23 26 -48 q20 -48 20 -99z" glyph-name="five" unicode="5"/>
<glyph d="M600 268q0 -129 -92 -211q-81 -71 -195 -71q-139 0 -222 93q-70 78 -70 193q1 98 68 198l184 270h219l-163 -223l2 -2q12 4 36 4q113 0 181 -89q52 -70 52 -162zM411 252q0 60 -51 88q-25 13 -53 13q-58 0 -86 -47q-14 -24 -14 -51q0 -58 46 -88q25 -15 54 -15 q59 0 89 47q15 24 15 53z" glyph-name="six" unicode="6"/>
<glyph d="M547 595l-260 -595h-208l273 581h-287v159h482v-145z" glyph-name="seven" unicode="7"/>
<glyph d="M579 220q0 -112 -97 -180q-76 -54 -172 -54q-111 0 -192 68q-78 68 -79 166q0 109 79 166q18 13 37 21q-72 56 -72 139q0 106 86 166q61 42 140 42q105 0 171 -69q55 -57 55 -137q-1 -85 -72 -141q94 -40 112 -145q4 -21 4 -42zM377 535q0 39 -35 58q-16 8 -32 8 q-42 0 -61 -36q-8 -16 -8 -32q0 -45 39 -62q13 -6 28 -6q42 0 61 38q8 16 8 32zM390 236q0 49 -40 73q-19 12 -41 12q-52 0 -73 -45q-8 -19 -8 -39q0 -52 44 -75q19 -10 40 -10q45 0 68 43q10 20 10 41z" glyph-name="eight" unicode="8"/>
<glyph d="M602 476q-1 -102 -71 -205l-184 -271h-219l163 224l-2 2q-12 -4 -36 -4q-50 0 -98 24q-105 52 -129 168q-6 29 -6 59q0 131 93 212q81 69 194 69q133 0 217 -81q9 -8 16 -16q62 -71 62 -181zM413 486q0 59 -48 88q-25 14 -54 14q-57 0 -86 -45q-16 -25 -16 -54 q0 -59 48 -87q25 -14 54 -14q58 0 87 46q15 24 15 52z" glyph-name="nine" unicode="9"/>
<glyph d="M244 385h-173v170h173v-170zM244 0h-173v170h173v-170z" glyph-name="colon" horiz-adv-x="314" unicode=":"/>
<glyph d="M244 385h-173v170h173v-170zM244 -40q0 -72 -47 -104q-24 -17 -55 -17h-71v89q47 0 59 6q18 10 19 32v34h-78v170h173v-210z" glyph-name="semicolon" horiz-adv-x="314" unicode=";"/>
<glyph d="M554 -38l-508 214v154l508 214v-175l-340 -115v-2l340 -115v-175z" glyph-name="less" horiz-adv-x="600" unicode="&lt;"/>
<glyph d="M552 305h-504v160h504v-160zM552 41h-504v160h504v-160z" glyph-name="equal" horiz-adv-x="600" unicode="="/>
<glyph d="M554 176l-508 -214v175l340 115v2l-340 115v175l508 -214v-154z" glyph-name="greater" horiz-adv-x="600" unicode="&gt;"/>
<glyph d="M551 542q0 -84 -76 -160q-11 -12 -34 -33q-57 -53 -71 -82q-7 -16 -9 -32h-174q1 70 71 143q9 10 27 27q56 55 68 85q6 16 6 31q-4 60 -58 62q-57 0 -66 -60q-3 -15 -3 -36h-183q-1 7 -1 18q0 123 93 194q72 55 170 55q120 0 189 -80q16 -19 27 -40q24 -45 24 -92zM361 0 h-174v170h174v-170z" glyph-name="question" horiz-adv-x="592" unicode="?"/>
<glyph d="M743 428q0 -56 -18 -108q-31 -91 -97 -135q-39 -26 -81 -26q-73 1 -98 72q-39 -64 -99 -71q-10 -1 -20 -1q-82 0 -127 75q-27 46 -27 102q0 90 60 159q58 64 135 65q64 0 92 -44q4 -8 7 -15h2l8 47h104l-37 -218q-7 -38 -7 -51q2 -25 27 -26q37 0 65 75q5 14 8 25 q9 37 9 74q0 121 -94 188q-69 50 -162 50q-128 0 -214 -94q-80 -87 -80 -208q0 -57 20 -110q57 -158 232 -176q20 -2 41 -2q112 0 211 37l21 -92q-102 -36 -232 -36q-198 0 -307 131q-37 46 -60 104q-28 72 -28 146q0 160 107 271q105 111 261 119q13 1 24 1q149 0 251 -91 q103 -94 103 -237zM450 385q0 58 -39 76q-13 5 -27 5q-55 0 -85 -61q-16 -32 -16 -65q0 -59 42 -80q15 -7 33 -7q60 0 83 75q9 28 9 57z" glyph-name="at" horiz-adv-x="748" unicode="@"/>
<glyph d="M749 0h-205l-36 107h-257l-39 -107h-203l297 740h149zM458 257l-76 253h-1h-2l-76 -253h155z" glyph-name="A" horiz-adv-x="758" unicode="A"/>
<glyph d="M612 225q0 -94 -58 -152q-5 -5 -10 -9q-65 -56 -159 -62q-26 -2 -83 -2h-235v740h228q112 0 162 -20q44 -18 75 -52q44 -49 44 -122q0 -90 -72 -140q-7 -5 -14 -9q121 -43 122 -172zM395 518q-5 55 -74 56h-73v-115h72q74 2 75 59zM431 237q-1 64 -88 64h-95v-135h94 q88 2 89 71z" glyph-name="B" horiz-adv-x="647" unicode="B"/>
<glyph d="M801 277q-36 -146 -159 -227q-97 -64 -215 -64q-155 0 -267 103q-111 102 -122 253q-1 15 -1 29q0 157 107 266q104 108 258 116q12 1 23 1q170 0 282 -119q25 -26 44 -55q40 -61 50 -121h-198q-32 85 -110 116q-33 13 -69 13q-100 0 -157 -83q-41 -58 -41 -133 q0 -100 66 -166q56 -54 133 -54q103 0 162 94q9 15 16 31h198z" glyph-name="C" horiz-adv-x="832" unicode="C"/>
<glyph d="M697 372q0 -245 -177 -331q-86 -41 -204 -41h-259v740h245q156 0 241 -55q49 -32 86 -83q68 -96 68 -230zM508 369q0 145 -98 189q-36 16 -82 16h-82v-408h81q155 0 178 152q3 25 3 51z" glyph-name="D" horiz-adv-x="742" unicode="D"/>
<glyph d="M478 0h-411v740h411v-166h-230v-115h223v-166h-223v-127h230v-166z" glyph-name="E" horiz-adv-x="528" unicode="E"/>
<glyph d="M471 574h-223v-126h215v-166h-215v-282h-181v740h404v-166z" glyph-name="F" horiz-adv-x="506" unicode="F"/>
<glyph d="M823 382q0 -168 -110 -281q-119 -112 -285 -116q-157 0 -270 104q-112 103 -122 257q-1 14 -1 27q0 161 112 270q108 104 267 111h17q136 0 246 -85q94 -73 124 -177h-212q-48 86 -144 95q-10 1 -19 1q-102 0 -161 -81q-41 -59 -41 -134q0 -110 71 -174q55 -48 132 -48 q107 0 156 72q14 22 21 47h-221v151h439q1 -14 1 -39z" glyph-name="G" horiz-adv-x="854" unicode="G"/>
<glyph d="M687 0h-189v296h-242v-296h-189v740h189v-278h242v278h189v-740z" glyph-name="H" horiz-adv-x="754" unicode="H"/>
<glyph d="M256 0h-189v740h189v-740z" glyph-name="I" horiz-adv-x="323" unicode="I"/>
<glyph d="M510 293q0 -115 -21 -166q-10 -25 -25 -44q-64 -79 -170 -94q-20 -3 -39 -3q-54 0 -100 18q-143 52 -149 220v14h201q9 -82 57 -86q54 0 57 76v18v494h189v-447z" glyph-name="J" horiz-adv-x="578" unicode="J"/>
<glyph d="M701 0h-221l-202 320h-2v-320h-189v740h189v-333h2l209 333h198l-245 -369z" glyph-name="K" horiz-adv-x="707" unicode="K"/>
<glyph d="M480 0h-408v740h189v-574h219v-166z" glyph-name="L" horiz-adv-x="487" unicode="L"/>
<glyph d="M848 0h-174l6 554l-2 2l-158 -556h-125l-158 556l-2 -2l6 -554h-174v740h243l147 -487h2l145 487h244v-740z" glyph-name="M" horiz-adv-x="915" unicode="M"/>
<glyph d="M691 0h-164l-282 450l-2 -1l5 -449h-181v740h163l286 -465l2 2l-8 463h181v-740z" glyph-name="N" horiz-adv-x="759" unicode="N"/>
<glyph d="M816 370q0 -159 -109 -269q-106 -107 -262 -114q-11 -1 -21 -1q-150 0 -262 98q-113 99 -126 246q-1 16 -1 31q0 84 29 158q16 40 48 83q106 140 284 151q15 1 29 1q157 0 269 -103q112 -104 121 -257q1 -13 1 -24zM627 369q0 100 -67 165q-56 54 -134 54 q-102 0 -160 -82q-42 -59 -42 -134q0 -103 69 -168q57 -52 135 -52q98 0 156 82q43 60 43 135z" glyph-name="O" horiz-adv-x="851" unicode="O"/>
<glyph d="M624 490q0 -96 -52 -166q-13 -16 -26 -28q-66 -58 -175 -63q-18 -1 -41 -1h-82v-232h-181v740h242q135 0 198 -34q17 -9 30 -20q87 -74 87 -196zM443 487q0 76 -88 85q-17 2 -37 2h-70v-176h77q100 0 115 62q3 13 3 27z" glyph-name="P" horiz-adv-x="636" unicode="P"/>
<glyph d="M855 -13q-32 -2 -47 -2q-116 0 -172 56l-2 2q-94 -58 -208 -58q-152 0 -264 100q-113 101 -126 249q-1 16 -1 32q0 157 106 268q104 109 257 119q13 1 26 1q152 0 266 -98q115 -100 128 -248q1 -16 1 -32q-1 -124 -61 -214q34 -31 89 -26q5 0 8 1v-150zM630 379 q0 104 -75 165q-55 44 -130 44q-111 0 -168 -96q-23 -41 -32 -91q61 25 105 25q137 0 259 -137q9 -10 16 -19q25 44 25 109zM510 170q-68 81 -126 104q-35 14 -74 14q-32 0 -66 -12q31 -74 104 -108q37 -17 76 -17q51 0 86 19z" glyph-name="Q" horiz-adv-x="866" unicode="Q"/>
<glyph d="M637 0h-216l-171 239h-2v-239h-181v740h234q125 0 184 -26q25 -12 44 -27q83 -66 90 -183q1 -10 1 -19q0 -113 -75 -181q-46 -41 -109 -52zM439 474q0 81 -85 97q-18 3 -37 3h-69v-206h67q109 0 122 84q2 11 2 22z" glyph-name="R" horiz-adv-x="653" unicode="R"/>
<glyph d="M550 213q0 -146 -122 -201q-59 -26 -136 -26q-149 0 -220 89q-47 59 -47 146v24h188q0 -66 40 -91q17 -10 37 -10q42 0 63 36q9 17 9 35q0 43 -51 68q-9 5 -28 13q-23 10 -66 28q-130 54 -165 133q-16 36 -16 79q0 109 98 172q72 46 161 46q104 0 174 -58q15 -13 26 -26 q43 -53 48 -129q1 -8 1 -17h-187q-9 62 -50 70q-9 2 -18 2q-39 0 -58 -31q-7 -13 -7 -27q1 -21 7 -31q15 -25 136 -78q7 -3 10 -4q109 -50 145 -107q28 -45 28 -105z" glyph-name="S" horiz-adv-x="573" unicode="S"/>
<glyph d="M490 574h-145v-574h-189v574h-146v166h480v-166z" glyph-name="T" horiz-adv-x="499" unicode="T"/>
<glyph d="M633 293q0 -121 -41 -186q-14 -22 -33 -41q-79 -80 -207 -80q-138 1 -213 79q-62 65 -71 153q-3 29 -3 75v447h189v-447q0 -112 57 -134q18 -7 39 -7q76 0 90 75q4 24 4 66v447h189v-447z" glyph-name="U" horiz-adv-x="698" unicode="U"/>
<glyph d="M706 740l-248 -740h-195l-247 740h194l149 -519h2l150 519h195z" glyph-name="V" horiz-adv-x="722" unicode="V"/>
<glyph d="M964 740l-196 -740h-166l-111 479h-2l-111 -479h-171l-191 740h192l99 -481h2l109 481h145l107 -483h2l101 483h191z" glyph-name="W" horiz-adv-x="981" unicode="W"/>
<glyph d="M748 0h-214l-160 262l-152 -262h-211l259 394l-229 346h214l127 -211l123 211h213l-226 -350z" glyph-name="X" horiz-adv-x="759" unicode="X"/>
<glyph d="M638 740l-219 -471v-269h-189v269l-221 471h205l110 -297l111 297h203z" glyph-name="Y" horiz-adv-x="647" unicode="Y"/>
<glyph d="M483 0h-467v124l255 450h-255v166h467v-153l-236 -421h236v-166z" glyph-name="Z" horiz-adv-x="499" unicode="Z"/>
<glyph d="M401 -264q-110 7 -186 60q-100 71 -110 216q-1 18 -1 39v388q0 142 69 218q19 20 42 37q75 53 186 60v-174q-87 -4 -104 -79q-5 -23 -5 -55v-402q0 -96 54 -122q23 -10 55 -12v-174z" glyph-name="bracketleft" horiz-adv-x="473" unicode="["/>
<glyph d="M521 -100h-185l-264 840h184z" glyph-name="backslash" horiz-adv-x="593" unicode="\"/>
<glyph d="M369 51q0 -142 -69 -218q-19 -20 -42 -37q-75 -53 -186 -60v174q87 4 104 79q5 23 5 55v402q0 96 -54 122q-23 10 -55 12v174q110 -7 186 -60q100 -71 110 -216q1 -19 1 -39v-388z" glyph-name="bracketright" horiz-adv-x="473" unicode="]"/>
<glyph d="M557 375h-180l-76 223h-2l-77 -223h-179l174 365h166z" glyph-name="asciicircum" horiz-adv-x="600" unicode="^"/>
<glyph d="M500 -125h-500v50h500v-50z" glyph-name="underscore" horiz-adv-x="500" unicode="_"/>
<glyph d="M404 721l-46 -97l-247 108l51 117z" glyph-name="grave" horiz-adv-x="555" unicode="`"/>
<glyph d="M643 0h-166v60h-2q-34 -65 -130 -77q-17 -2 -32 -2q-138 0 -217 103q-62 81 -62 194q0 132 85 217q79 79 194 79q94 0 145 -56q10 -11 17 -22h2v59h166v-555zM477 278q0 78 -60 118q-36 23 -80 23q-76 0 -115 -63q-22 -36 -22 -80q0 -71 56 -113q37 -27 82 -27 q76 0 116 61q23 36 23 81z" glyph-name="a" horiz-adv-x="704" unicode="a"/>
<glyph d="M660 281q0 -141 -88 -226q-77 -74 -192 -74q-79 0 -131 44q-18 16 -28 34h-2v-59h-159v740h166v-229q60 63 161 63q59 0 117 -27q127 -59 151 -205q5 -30 5 -61zM494 278q0 71 -55 114q-36 27 -81 27q-74 0 -114 -60q-24 -36 -24 -80q0 -77 56 -118q35 -25 79 -25 q74 0 115 60q24 37 24 82z" glyph-name="b" horiz-adv-x="693" unicode="b"/>
<glyph d="M621 211q-28 -119 -131 -184q-73 -45 -160 -45q-128 0 -214 90q-83 86 -83 207q0 127 88 213q85 82 205 82q129 0 216 -87q60 -61 78 -146h-168q-37 77 -124 78q-75 0 -110 -66q-18 -34 -18 -75q0 -79 57 -119q33 -22 75 -22q81 1 120 74h169z" glyph-name="c" horiz-adv-x="652" unicode="c"/>
<glyph d="M638 0h-158v60h-2q-47 -78 -166 -78q-136 0 -215 102q-63 82 -63 195q0 133 84 218q78 77 191 77q99 -1 163 -66v232h166v-740zM481 280q0 76 -60 116q-36 23 -80 23q-77 0 -117 -59q-24 -36 -24 -80q0 -79 59 -120q35 -23 80 -23q80 0 119 63q23 35 23 80z" glyph-name="d" horiz-adv-x="698" unicode="d"/>
<glyph d="M614 271q0 -24 -4 -44h-416q10 -69 75 -95q26 -10 55 -10q60 1 101 52h170q-51 -119 -156 -167q-55 -25 -115 -25q-123 0 -210 88q-84 87 -84 206q0 123 85 210q86 88 206 88q132 0 217 -96q76 -87 76 -207zM448 339q-14 64 -77 87q-24 8 -49 8q-72 0 -108 -53 q-13 -20 -18 -42h252z" glyph-name="e" horiz-adv-x="646" unicode="e"/>
<glyph d="M302 429h-70v-429h-166v429h-62v126h62v29q0 161 188 169q12 1 24 1h24v-125q-51 0 -62 -20q-8 -15 -8 -54h70v-126z" glyph-name="f" horiz-adv-x="314" unicode="f"/>
<glyph d="M635 67q0 -112 -24 -165q-4 -10 -9 -18q-55 -92 -192 -122q-45 -9 -89 -9q-168 1 -243 109q-28 41 -34 86h192q26 -54 97 -55q98 0 126 88q9 29 9 63v17h-2q-34 -63 -119 -76q-17 -3 -33 -3q-132 0 -212 96q-68 82 -68 196q0 133 85 220q79 79 195 79q98 0 145 -59 q5 -6 8 -11h2v52h166v-488zM469 275q0 80 -58 120q-34 23 -77 23q-71 0 -110 -59q-24 -36 -24 -79q0 -75 54 -117q35 -26 79 -26q78 0 115 61q21 35 21 77z" glyph-name="g" horiz-adv-x="693" unicode="g"/>
<glyph d="M574 0h-166v302q-2 115 -89 116q-92 -2 -93 -110v-308h-166v740h166v-236h2q40 70 143 70q89 0 142 -51q5 -6 9 -10q48 -55 51 -149q1 -17 1 -54v-310z" glyph-name="h" horiz-adv-x="632" unicode="h"/>
<glyph d="M226 614h-166v126h166v-126zM226 0h-166v555h166v-555z" glyph-name="i" horiz-adv-x="286" unicode="i"/>
<glyph d="M253 614h-166v126h166v-126zM253 12q0 -131 -53 -176q-48 -40 -153 -40h-41v126h22q50 0 57 48q2 14 2 36v549h166v-543z" glyph-name="j" horiz-adv-x="321" unicode="j"/>
<glyph d="M585 555l-209 -244l203 -311h-188l-157 267h-2v-267h-166v740h166v-386h2l154 201h197z" glyph-name="k" horiz-adv-x="591" unicode="k"/>
<glyph d="M226 0h-166v740h166v-740z" glyph-name="l" horiz-adv-x="286" unicode="l"/>
<glyph d="M912 0h-166v295q0 88 -38 112q-19 11 -47 11q-89 -8 -92 -115v-303h-166v302q-2 115 -83 116q-92 -6 -94 -123v-295h-166v555h155v-59h2q45 78 153 78q107 -1 160 -99q64 98 176 99q92 -1 146 -56q53 -54 59 -141q1 -20 1 -74v-303z" glyph-name="m" horiz-adv-x="969" unicode="m"/>
<glyph d="M574 0h-166v303q0 86 -44 107q-18 8 -43 8q-82 0 -93 -82q-2 -16 -2 -34v-302h-166v555h155v-59h2q49 78 151 78q72 0 130 -39q7 -5 12 -9q64 -54 64 -179v-347z" glyph-name="n" horiz-adv-x="632" unicode="n"/>
<glyph d="M632 278q0 -134 -94 -219q-85 -76 -205 -76q-135 0 -221 92q-78 83 -78 203q0 134 94 219q85 76 205 76q135 0 221 -92q78 -83 78 -203zM466 278q0 71 -54 113q-35 27 -79 27q-70 0 -109 -60q-24 -36 -24 -80q0 -71 54 -113q35 -27 79 -27q70 0 109 60q24 36 24 80z" glyph-name="o" horiz-adv-x="666" unicode="o"/>
<glyph d="M663 272q0 -126 -81 -211q-77 -80 -189 -80q-104 1 -167 69v-235h-166v740h156v-61h1h2q64 80 173 80q138 0 214 -109q57 -82 57 -193zM497 277q0 75 -58 116q-36 26 -81 26q-74 0 -115 -60q-24 -37 -24 -82q0 -72 56 -114q37 -27 83 -27q73 0 114 59q25 37 25 82z" glyph-name="p" horiz-adv-x="697" unicode="p"/>
<glyph d="M638 -185h-166v242h-2q-54 -75 -168 -75q-127 0 -204 96q-64 80 -64 189q0 140 85 228q77 79 194 79q100 0 150 -61q8 -9 14 -19h2v61h159v-740zM478 277q0 76 -58 117q-36 25 -82 25q-78 0 -117 -64q-21 -37 -21 -81q0 -70 57 -111q38 -26 83 -26q70 0 112 57 q26 38 26 83z" glyph-name="q" horiz-adv-x="698" unicode="q"/>
<glyph d="M356 407q-90 -2 -116 -42q-15 -23 -15 -60v-305h-166v555h156v-59h2q41 78 139 78v-167z" glyph-name="r" horiz-adv-x="363" unicode="r"/>
<glyph d="M476 170q0 -105 -96 -157q-58 -32 -130 -32q-123 0 -185 79q-34 45 -41 105h165q13 -48 63 -51q38 0 53 25q5 9 5 18q0 34 -51 55q-4 1 -13 5q-8 3 -11 4q-48 16 -72 25q-131 49 -132 145q0 96 87 148q58 35 128 35q123 0 180 -81q28 -40 33 -94h-163q-3 41 -52 42 q-34 0 -44 -24q-3 -7 -3 -13q0 -31 55 -50q13 -5 43 -13q96 -29 132 -60q49 -42 49 -111z" glyph-name="s" horiz-adv-x="499" unicode="s"/>
<glyph d="M339 429h-80v-429h-166v429h-82v126h82v185h166v-185h80v-126z" glyph-name="t" horiz-adv-x="351" unicode="t"/>
<glyph d="M574 0h-157v59h-2q-38 -77 -144 -77q-106 1 -163 70q-45 55 -49 130q-1 17 -1 41v332h166v-307q0 -83 44 -103q19 -8 45 -8q86 0 94 95q1 9 1 18v305h166v-555z" glyph-name="u" horiz-adv-x="634" unicode="u"/>
<glyph d="M575 555l-200 -555h-159l-199 555h172l106 -346h2l106 346h172z" glyph-name="v" horiz-adv-x="592" unicode="v"/>
<glyph d="M843 555l-170 -555h-154l-93 359h-2l-93 -359h-154l-170 555h172l83 -345h2l91 345h140l92 -345h2l83 345h171z" glyph-name="w" horiz-adv-x="850" unicode="w"/>
<glyph d="M628 0h-203l-111 172l-113 -172h-200l211 297l-187 258h199l90 -146l89 146h197l-187 -258z" glyph-name="x" horiz-adv-x="630" unicode="x"/>
<glyph d="M573 555l-278 -740h-176l88 213l-206 527h177l111 -322h2l106 322h176z" glyph-name="y" horiz-adv-x="574" unicode="y"/>
<glyph d="M428 0h-413v114l234 315h-234v126h413v-126l-217 -303h217v-126z" glyph-name="z" horiz-adv-x="444" unicode="z"/>
<glyph d="M483 -264h-128q-92 0 -132 62q-21 33 -21 76v212q0 51 -74 60q-12 1 -23 1v172q67 0 89 37q8 14 8 30v216q0 87 76 122q34 16 77 16h128v-126q-63 0 -72 -2q-40 -10 -41 -63v-209q0 -85 -78 -101q-14 -3 -30 -4v-4q72 -4 98 -51q10 -19 10 -41v-212q0 -55 43 -64 q9 -1 70 -1v-126z" glyph-name="braceleft" horiz-adv-x="554" unicode="{"/>
<glyph d="M369 -100h-183v840h183v-840z" glyph-name="bar" horiz-adv-x="555" unicode="|"/>
<glyph d="M449 147q-73 0 -92 -39q-5 -10 -5 -22v-212q0 -87 -76 -122q-34 -16 -77 -16h-128v126q63 0 72 2q40 10 41 63v212q0 63 67 84q20 7 41 8v4q-91 7 -105 74q-3 14 -3 31v209q0 55 -43 64q-9 1 -70 1v126h128q92 0 132 -62q21 -33 21 -76v-216q0 -51 64 -64q17 -3 33 -3 v-172z" glyph-name="braceright" horiz-adv-x="554" unicode="}"/>
<glyph d="M533 219q-43 -57 -71 -73q-27 -15 -56 -15q-39 0 -100 32q-73 34 -117 36q-50 -1 -86 -69l-36 156q50 88 127 89q40 0 126 -39q63 -29 87 -29q38 0 79 55q2 3 11 15z" glyph-name="asciitilde" horiz-adv-x="600" unicode="~"/>
<glyph glyph-name="uni00A0" horiz-adv-x="309" unicode=" "/>
<glyph d="M252 385h-171v170h171v-170zM252 -185h-171v496h171v-496z" glyph-name="exclamdown" horiz-adv-x="333" unicode="¡"/>
<glyph d="M556 325q-18 -98 -99 -154q-37 -25 -79 -35v-105h-137v105q-111 38 -156 133q-23 49 -23 104q0 115 84 189q42 36 95 53v105h131v-101q88 -24 143 -97q36 -49 41 -102h-172q-25 38 -71 40q-49 0 -74 -42q-12 -20 -12 -43q0 -50 44 -73q20 -11 42 -11q42 1 67 34h176z" glyph-name="cent" unicode="¢"/>
<glyph d="M618 188q0 -37 -18 -73q-50 -107 -183 -115h-18h-355v148h49q70 0 85 29q6 11 6 25q0 28 -33 71q-7 8 -9 11h-128v133h48q-28 42 -28 94q0 51 24 100q50 103 163 134q39 10 79 10q120 0 195 -80q17 -18 29 -38q29 -47 37 -122q1 -4 1 -7h-174q-15 77 -85 81 q-46 0 -69 -41q-11 -20 -11 -42q1 -48 34 -89h156v-133h-77q33 -39 33 -69q0 -31 -35 -64q-3 -2 -4 -3h41q81 2 82 68q0 16 -7 36h161q11 -37 11 -64z" glyph-name="sterling" unicode="£"/>
<glyph d="M546 177q-52 -54 -78 -80q-12 11 -36 35q-23 23 -35 34q-50 -30 -113 -30q-64 1 -114 30q-25 -24 -70 -69q-28 27 -79 80q14 13 43 39q19 19 28 27q-31 55 -31 111q1 58 31 111q-46 44 -71 67q52 54 79 80q46 -46 70 -69q52 30 114 30q64 -1 113 -30q12 11 35 35 q24 23 36 34q27 -27 78 -80q-26 -24 -71 -67q32 -53 32 -111q-1 -55 -32 -111q10 -9 28 -27q29 -27 43 -39zM395 355q0 57 -51 90q-29 18 -60 18q-61 0 -94 -49q-17 -28 -17 -59q0 -57 49 -90q28 -19 62 -19q59 0 93 49q18 28 18 60z" glyph-name="currency" horiz-adv-x="614" unicode="¤"/>
<glyph d="M618 740l-117 -217h97v-138h-170l-26 -49v-30h196v-139h-197v-167h-186v167h-196v139h196v27l-26 52h-168v138h99l-119 217h200l109 -237l111 237h197z" glyph-name="yen" unicode="¥"/>
<glyph d="M369 404h-183v336h183v-336zM369 -100h-183v336h183v-336z" glyph-name="brokenbar" horiz-adv-x="555" unicode="¦"/>
<glyph d="M630 246q0 -70 -56 -129q-12 -13 -30 -29q48 -65 51 -129v-12q0 -118 -99 -178q-66 -40 -151 -40q-47 0 -95 14q-154 45 -181 190q-3 16 -4 32h164q15 -84 113 -85q57 0 80 33q10 15 10 32q0 38 -67 70q-5 2 -13 6l-8 4l-171 79q-90 42 -117 98q-16 35 -16 82 q1 91 95 161q-31 49 -31 111q0 115 105 168q59 30 134 30q113 0 183 -70q55 -56 58 -136h-163q-18 57 -87 58q-66 -5 -70 -53q0 -32 54 -57q3 -1 5 -2l182 -82q92 -42 115 -104q10 -28 10 -62zM483 218q0 35 -63 64q-3 1 -5 2l-185 83q-38 -20 -39 -55q0 -36 44 -59 q4 -2 9 -4l202 -93q36 24 37 62z" glyph-name="section" horiz-adv-x="670" unicode="§"/>
<glyph d="M473 634h-159v151h159v-151zM240 634h-159v151h159v-151z" glyph-name="dieresis" horiz-adv-x="555" unicode="¨"/>
<glyph d="M783 370q0 -150 -102 -261q-101 -109 -247 -122q-17 -1 -33 -1q-150 0 -261 103q-108 101 -121 247q-1 18 -1 34q0 153 105 264q102 108 251 119q15 1 29 1q151 0 260 -105q107 -102 119 -248q1 -16 1 -31zM700 370q0 126 -87 216q-87 91 -211 91q-129 0 -217 -93 q-84 -90 -84 -214q0 -126 88 -216q88 -91 212 -91q128 0 215 94q84 90 84 213zM599 329q-9 -111 -97 -156q-44 -23 -100 -23q-118 0 -175 91q-35 57 -35 132q0 113 76 176q57 47 137 47q90 0 146 -60q40 -43 44 -100h-105q-20 67 -84 68q-79 0 -101 -81q-6 -24 -6 -51 q0 -88 56 -118q23 -12 51 -12q63 0 84 73q2 7 3 14h106z" glyph-name="copyright" horiz-adv-x="800" unicode="©"/>
<glyph d="M351 458h-99v29h-2q-20 -39 -73 -39q-77 0 -117 67q-23 39 -23 86q0 81 57 125q37 28 85 28q51 -1 72 -39h1v29h99v-286zM253 601q0 40 -35 54q-12 5 -24 5q-39 0 -54 -36q-4 -11 -4 -23q0 -38 33 -54q12 -5 25 -5q40 0 54 35q5 12 5 24z" glyph-name="ordfeminine" horiz-adv-x="403" unicode="ª"/>
<glyph d="M375 103l-129 127v114l129 130v-140l-51 -45l51 -47v-139zM176 103l-129 127v114l129 130v-140l-51 -45l51 -47v-139z" glyph-name="guillemotleft" horiz-adv-x="422" unicode="«"/>
<glyph d="M557 108h-160v177h-364v160h524v-337z" glyph-name="logicalnot" horiz-adv-x="600" unicode="¬"/>
<glyph d="M281 207h-281v163h281v-163z" glyph-name="uni00AD" horiz-adv-x="281" unicode="­"/>
<glyph d="M783 370q0 -150 -102 -261q-101 -109 -247 -122q-17 -1 -33 -1q-150 0 -261 103q-108 101 -121 247q-1 18 -1 34q0 152 104 263q102 108 249 120q17 1 32 1q149 0 259 -104q107 -101 120 -246q1 -18 1 -34zM700 370q0 126 -87 216q-87 91 -211 91q-129 0 -217 -93 q-84 -90 -84 -214q0 -126 88 -216q88 -91 212 -91q128 0 215 94q84 90 84 213zM578 161h-103q-5 11 -13 93q-1 6 -1 9q-7 52 -51 60q-12 2 -25 2h-42v-164h-106v426h180q103 0 140 -60q16 -26 16 -60q-1 -72 -69 -103q52 -22 60 -87q2 -13 3 -39q2 -53 11 -77zM467 459 q-2 54 -67 55h-57v-120h55q68 2 69 65z" glyph-name="registered" horiz-adv-x="800" unicode="®"/>
<glyph d="M457 648h-359v126h359v-126z" glyph-name="macron" horiz-adv-x="555" unicode="¯"/>
<glyph d="M343 569q0 -74 -58 -116q-38 -27 -85 -27q-74 0 -116 58q-27 38 -27 85q0 74 58 116q38 27 85 27q74 0 116 -58q27 -38 27 -85zM259 569q0 35 -31 53q-14 8 -28 8q-34 0 -52 -33q-7 -14 -7 -28q0 -37 32 -54q13 -7 27 -7q36 0 53 34q6 14 6 27z" glyph-name="degree" horiz-adv-x="400" unicode="°"/>
<glyph d="M552 260h-172v-130h-160v130h-172v160h172v136h160v-136h172v-160zM552 -82h-504v160h504v-160z" glyph-name="plusminus" horiz-adv-x="600" unicode="±"/>
<glyph d="M376 422h-341v97q103 66 141 102q22 21 35 40q24 34 24 66q-2 40 -35 41q-44 -1 -47 -68h-123q2 67 29 106q55 65 150 69q81 0 130 -48q35 -35 35 -83q-1 -67 -60 -133q-35 -38 -91 -81v-2h153v-106z" glyph-name="two.superior" horiz-adv-x="407" unicode="²"/>
<glyph d="M379 554q0 -75 -80 -117q-47 -24 -99 -24q-83 0 -133 44q-10 9 -17 18q-23 33 -28 84h129q14 -36 50 -38q47 2 48 43q-1 39 -67 39q-8 0 -22 -1h-15v90h18q59 0 65 32q1 5 1 10q-4 31 -32 33q-34 -2 -36 -35h-126q1 91 83 127q38 16 83 16q76 0 121 -46q31 -33 31 -77 q-1 -61 -57 -92q58 -19 77 -71q6 -17 6 -35z" glyph-name="three.superior" horiz-adv-x="407" unicode="³"/>
<glyph d="M444 723l-246 -109l-47 98l240 129z" glyph-name="acute" horiz-adv-x="555" unicode="´"/>
<glyph d="M581 0h-158v69h-1h-2q-17 -52 -65 -72q-18 -7 -37 -7q-61 0 -92 45q-4 5 -6 9h-2v-234h-166v745h166v-274q0 -127 78 -142q10 -2 20 -2q85 0 97 111q2 16 2 33v274h166v-555z" glyph-name="mu" horiz-adv-x="634" unicode="µ"/>
<glyph d="M607 622h-49v-725h-128v725h-97v-725h-128v458q-133 0 -186 85q-26 44 -26 104q2 195 254 196h360v-118z" glyph-name="paragraph" horiz-adv-x="701" unicode="¶"/>
<glyph d="M244 168h-173v170h173v-170z" glyph-name="periodcentered" horiz-adv-x="314" unicode="·"/>
<glyph d="M388 -141q0 -64 -56 -91q-26 -13 -56 -13q-70 0 -98 57q-8 18 -11 37h76q13 -27 33 -28q30 0 35 30q1 4 1 8q0 28 -26 33q-4 1 -8 1q-16 -1 -27 -15l-65 35l42 87h83l-29 -53q10 3 21 3q54 0 76 -48q9 -21 9 -43z" glyph-name="cedilla" horiz-adv-x="555" unicode="¸"/>
<glyph d="M221 422h-123v338h-78v106h201v-444z" glyph-name="one.superior" horiz-adv-x="289" unicode="¹"/>
<glyph d="M347 601q0 -83 -65 -126q-40 -27 -90 -27q-82 0 -127 62q-28 40 -28 91q0 83 65 126q40 27 90 27q82 0 127 -62q28 -40 28 -91zM248 601q0 36 -31 53q-12 6 -25 6q-35 0 -50 -34q-6 -12 -6 -25q0 -36 31 -53q12 -6 25 -6q35 0 50 34q6 12 6 25z" glyph-name="ordmasculine" horiz-adv-x="385" unicode="º"/>
<glyph d="M375 230l-129 -127v140l52 45l-52 47v139l129 -131v-113zM176 230l-129 -127v140l51 45l-51 47v139l129 -131v-113z" glyph-name="guillemotright" horiz-adv-x="422" unicode="»"/>
<glyph d="M597 740l-311 -740h-136l310 740h137zM221 296h-123v338h-78v106h201v-444zM803 77h-52v-77h-123v77h-209v86l214 281h118v-273h52v-94zM630 171v121h-2l-82 -121h84z" glyph-name="onequarter" horiz-adv-x="831" unicode="¼"/>
<glyph d="M221 296h-123v338h-78v106h201v-444zM592 740l-311 -740h-136l310 740h137zM819 0h-341v97q103 66 141 102q22 21 35 40q24 34 24 66q-2 40 -35 41q-44 -1 -47 -68h-123q2 67 29 106q55 65 150 69q81 0 130 -48q35 -35 35 -83q-1 -67 -60 -133q-35 -38 -91 -81v-2h153 v-106z" glyph-name="onehalf" horiz-adv-x="867" unicode="½"/>
<glyph d="M379 428q0 -75 -80 -117q-47 -24 -99 -24q-83 0 -133 44q-10 9 -17 18q-23 33 -28 84h129q14 -36 50 -38q47 2 48 43q-1 39 -67 39q-8 0 -22 -1h-15v90h18q59 0 65 32q1 5 1 10q-4 31 -32 33q-34 -2 -36 -35h-126q1 91 83 127q38 16 83 16q76 0 121 -46q31 -33 31 -77 q-1 -61 -57 -92q58 -19 77 -71q6 -17 6 -35zM719 740l-311 -740h-136l310 740h137zM920 77h-52v-77h-123v77h-209v86l214 281h118v-273h52v-94zM747 171v121h-2l-82 -121h84z" glyph-name="threequarters" horiz-adv-x="948" unicode="¾"/>
<glyph d="M405 385h-174v170h174v-170zM543 49q0 -123 -93 -194q-72 -55 -170 -55q-122 0 -190 83q-15 18 -25 37q-24 45 -24 92q0 85 76 162q12 11 35 33q57 52 71 81q6 16 8 31h174q-1 -70 -71 -143l-27 -27q-56 -54 -67 -84q-7 -17 -7 -32q2 -61 57 -62q57 0 66 60q3 15 3 36 h183q1 -7 1 -18z" glyph-name="questiondown" horiz-adv-x="592" unicode="¿"/>
<glyph d="M749 0h-205l-36 107h-257l-39 -107h-203l297 740h149zM458 257l-76 253h-1h-2l-76 -253h155zM506 873l-46 -97l-247 108l51 117z" glyph-name="Agrave" horiz-adv-x="758" unicode="À"/>
<glyph d="M749 0h-205l-36 107h-257l-39 -107h-203l297 740h149zM458 257l-76 253h-1h-2l-76 -253h155zM546 885l-246 -109l-47 98l240 129z" glyph-name="Aacute" horiz-adv-x="758" unicode="Á"/>
<glyph d="M749 0h-205l-36 107h-257l-39 -107h-203l297 740h149zM458 257l-76 253h-1h-2l-76 -253h155zM586 805h-160l-46 58l-46 -58h-162l156 166h108z" glyph-name="Acircumflex" horiz-adv-x="758" unicode="Â"/>
<glyph d="M749 0h-205l-36 107h-257l-39 -107h-203l297 740h149zM458 257l-76 253h-1h-2l-76 -253h155zM582 849q-59 -37 -113 -37q-21 0 -101 18q-38 8 -59 8q-26 0 -72 -19l-60 88q61 35 110 35q24 0 100 -17q37 -8 62 -8q34 0 73 17z" glyph-name="Atilde" horiz-adv-x="758" unicode="Ã"/>
<glyph d="M749 0h-205l-36 107h-257l-39 -107h-203l297 740h149zM458 257l-76 253h-1h-2l-76 -253h155zM575 815h-159v151h159v-151zM342 815h-159v151h159v-151z" glyph-name="Adieresis" horiz-adv-x="758" unicode="Ä"/>
<glyph d="M749 0h-205l-36 107h-257l-39 -107h-203l297 740h149zM458 257l-76 253h-1h-2l-76 -253h155zM505 891q0 -64 -52 -102q-34 -24 -74 -24q-64 0 -102 52q-24 34 -24 74q0 64 52 102q34 24 74 24q64 0 102 -52q24 -34 24 -74zM423 892q0 29 -27 40q-9 4 -17 4q-30 0 -41 -28 q-3 -9 -3 -17q0 -29 27 -40q9 -3 17 -3q29 0 41 27q3 9 3 17z" glyph-name="Aring" horiz-adv-x="758" unicode="Å"/>
<glyph d="M925 0h-411v124h-215l-80 -124h-229l514 740h421v-166h-228v-115h221v-166h-221v-127h228v-166zM514 270v201h-2l-136 -201h138z" glyph-name="AE" horiz-adv-x="975" unicode="Æ"/>
<glyph d="M801 277q-37 -147 -159 -227q-89 -58 -198 -63l-22 -40q10 3 21 3q50 0 74 -47q11 -21 11 -44q0 -64 -56 -91q-26 -13 -56 -13q-70 0 -98 57q-8 18 -11 37h76q8 -27 33 -28q30 0 35 30q1 4 1 8q0 28 -26 33q-4 1 -8 1q-17 -1 -27 -15l-65 35l38 78q-147 22 -241 137 q-86 106 -86 243q0 157 107 266q104 108 258 116q12 1 23 1q166 0 278 -114q31 -32 54 -70q34 -55 44 -111h-198q-32 85 -110 116q-33 13 -69 13q-100 0 -157 -83q-41 -58 -41 -133q0 -100 66 -166q56 -54 133 -54q108 0 166 101q7 12 12 24h198z" glyph-name="Ccedilla" horiz-adv-x="832" unicode="Ç"/>
<glyph d="M478 0h-411v740h411v-166h-230v-115h223v-166h-223v-127h230v-166zM391 873l-46 -97l-247 108l51 117z" glyph-name="Egrave" horiz-adv-x="528" unicode="È"/>
<glyph d="M478 0h-411v740h411v-166h-230v-115h223v-166h-223v-127h230v-166zM431 885l-246 -109l-47 98l240 129z" glyph-name="Eacute" horiz-adv-x="528" unicode="É"/>
<glyph d="M478 0h-411v740h411v-166h-230v-115h223v-166h-223v-127h230v-166zM471 805h-160l-46 58l-46 -58h-162l156 166h108z" glyph-name="Ecircumflex" horiz-adv-x="528" unicode="Ê"/>
<glyph d="M478 0h-411v740h411v-166h-230v-115h223v-166h-223v-127h230v-166zM460 815h-159v151h159v-151zM227 815h-159v151h159v-151z" glyph-name="Edieresis" horiz-adv-x="528" unicode="Ë"/>
<glyph d="M256 0h-189v740h189v-740zM263 873l-46 -97l-247 108l51 117z" glyph-name="Igrave" horiz-adv-x="323" unicode="Ì"/>
<glyph d="M256 0h-189v740h189v-740zM353 885l-246 -109l-47 98l240 129z" glyph-name="Iacute" horiz-adv-x="323" unicode="Í"/>
<glyph d="M256 0h-189v740h189v-740zM368 805h-160l-46 58l-46 -58h-162l156 166h108z" glyph-name="Icircumflex" horiz-adv-x="323" unicode="Î"/>
<glyph d="M256 0h-189v740h189v-740zM357 815h-159v151h159v-151zM124 815h-159v151h159v-151z" glyph-name="Idieresis" horiz-adv-x="323" unicode="Ï"/>
<glyph d="M737 372q0 -191 -120 -292q-95 -80 -241 -80h-279v296h-67v166h67v278h249q154 0 238 -55q47 -32 85 -83q68 -95 68 -230zM548 369q0 145 -98 189q-36 16 -82 16h-82v-112h108v-166h-108v-130h81q155 0 178 152q3 25 3 51z" glyph-name="Eth" horiz-adv-x="772" unicode="Ð"/>
<glyph d="M691 0h-164l-282 450l-2 -1l5 -449h-181v740h163l286 -465l2 2l-8 463h181v-740zM582 849q-59 -37 -113 -37q-21 0 -101 18q-38 8 -59 8q-26 0 -72 -19l-60 88q61 35 110 35q24 0 100 -17q37 -8 62 -8q34 0 73 17z" glyph-name="Ntilde" horiz-adv-x="759" unicode="Ñ"/>
<glyph d="M816 370q0 -159 -109 -269q-106 -107 -262 -114q-11 -1 -21 -1q-150 0 -262 98q-113 99 -126 246q-1 16 -1 31q0 84 29 158q16 40 48 83q106 140 284 151q15 1 29 1q157 0 269 -103q112 -104 121 -257q1 -13 1 -24zM627 369q0 100 -67 165q-56 54 -134 54 q-102 0 -160 -82q-42 -59 -42 -134q0 -103 69 -168q57 -52 135 -52q98 0 156 82q43 60 43 135zM552 873l-46 -97l-247 108l51 117z" glyph-name="Ograve" horiz-adv-x="851" unicode="Ò"/>
<glyph d="M816 370q0 -159 -109 -269q-106 -107 -262 -114q-11 -1 -21 -1q-150 0 -262 98q-113 99 -126 246q-1 16 -1 31q0 84 29 158q16 40 48 83q106 140 284 151q15 1 29 1q157 0 269 -103q112 -104 121 -257q1 -13 1 -24zM627 369q0 100 -67 165q-56 54 -134 54 q-102 0 -160 -82q-42 -59 -42 -134q0 -103 69 -168q57 -52 135 -52q98 0 156 82q43 60 43 135zM592 885l-246 -109l-47 98l240 129z" glyph-name="Oacute" horiz-adv-x="851" unicode="Ó"/>
<glyph d="M816 370q0 -159 -109 -269q-106 -107 -262 -114q-11 -1 -21 -1q-150 0 -262 98q-113 99 -126 246q-1 16 -1 31q0 84 29 158q16 40 48 83q106 140 284 151q15 1 29 1q157 0 269 -103q112 -104 121 -257q1 -13 1 -24zM627 369q0 100 -67 165q-56 54 -134 54 q-102 0 -160 -82q-42 -59 -42 -134q0 -103 69 -168q57 -52 135 -52q98 0 156 82q43 60 43 135zM632 805h-160l-46 58l-46 -58h-162l156 166h108z" glyph-name="Ocircumflex" horiz-adv-x="851" unicode="Ô"/>
<glyph d="M816 370q0 -159 -109 -269q-106 -107 -262 -114q-11 -1 -21 -1q-150 0 -262 98q-113 99 -126 246q-1 16 -1 31q0 84 29 158q16 40 48 83q106 140 284 151q15 1 29 1q157 0 269 -103q112 -104 121 -257q1 -13 1 -24zM627 369q0 100 -67 165q-56 54 -134 54 q-102 0 -160 -82q-42 -59 -42 -134q0 -103 69 -168q57 -52 135 -52q98 0 156 82q43 60 43 135zM628 849q-59 -37 -113 -37q-21 0 -101 18q-38 8 -59 8q-26 0 -72 -19l-60 88q61 35 110 35q24 0 100 -17q37 -8 62 -8q34 0 73 17z" glyph-name="Otilde" horiz-adv-x="851" unicode="Õ"/>
<glyph d="M816 370q0 -159 -109 -269q-106 -107 -262 -114q-11 -1 -21 -1q-150 0 -262 98q-113 99 -126 246q-1 16 -1 31q0 84 29 158q16 40 48 83q106 140 284 151q15 1 29 1q157 0 269 -103q112 -104 121 -257q1 -13 1 -24zM627 369q0 100 -67 165q-56 54 -134 54 q-102 0 -160 -82q-42 -59 -42 -134q0 -103 69 -168q57 -52 135 -52q98 0 156 82q43 60 43 135zM621 815h-159v151h159v-151zM388 815h-159v151h159v-151z" glyph-name="Odieresis" horiz-adv-x="851" unicode="Ö"/>
<glyph d="M544 373l-131 -130l129 -130l-113 -113l-129 129l-131 -129l-113 113l130 130l-130 130l113 113l130 -130l131 131z" glyph-name="multiply" horiz-adv-x="600" unicode="×"/>
<glyph d="M816 370q0 -158 -109 -268q-105 -107 -260 -115q-12 -1 -23 -1q-87 0 -167 35l-63 -84l-118 87l62 83q-103 111 -103 263q0 160 109 270q107 107 264 114h18q92 0 167 -35l64 87l118 -86l-64 -86q105 -113 105 -264zM627 369q0 59 -29 114l-237 -320q31 -11 66 -11 q99 0 157 81q43 60 43 136zM488 578q-29 10 -62 10q-101 0 -160 -81q-42 -59 -42 -134q0 -65 27 -114z" glyph-name="Oslash" horiz-adv-x="851" unicode="Ø"/>
<glyph d="M633 293q0 -121 -41 -186q-14 -22 -33 -41q-79 -80 -207 -80q-138 1 -213 79q-62 65 -71 153q-3 29 -3 75v447h189v-447q0 -112 57 -134q18 -7 39 -7q76 0 90 75q4 24 4 66v447h189v-447zM441 873l-46 -97l-247 108l51 117z" glyph-name="Ugrave" horiz-adv-x="698" unicode="Ù"/>
<glyph d="M633 293q0 -121 -41 -186q-14 -22 -33 -41q-79 -80 -207 -80q-138 1 -213 79q-62 65 -71 153q-3 29 -3 75v447h189v-447q0 -112 57 -134q18 -7 39 -7q76 0 90 75q4 24 4 66v447h189v-447zM551 885l-246 -109l-47 98l240 129z" glyph-name="Uacute" horiz-adv-x="698" unicode="Ú"/>
<glyph d="M633 293q0 -121 -41 -186q-14 -22 -33 -41q-79 -80 -207 -80q-138 1 -213 79q-62 65 -71 153q-3 29 -3 75v447h189v-447q0 -112 57 -134q18 -7 39 -7q76 0 90 75q4 24 4 66v447h189v-447zM556 805h-160l-46 58l-46 -58h-162l156 166h108z" glyph-name="Ucircumflex" horiz-adv-x="698" unicode="Û"/>
<glyph d="M633 293q0 -121 -41 -186q-14 -22 -33 -41q-79 -80 -207 -80q-138 1 -213 79q-62 65 -71 153q-3 29 -3 75v447h189v-447q0 -112 57 -134q18 -7 39 -7q76 0 90 75q4 24 4 66v447h189v-447zM545 815h-159v151h159v-151zM312 815h-159v151h159v-151z" glyph-name="Udieresis" horiz-adv-x="698" unicode="Ü"/>
<glyph d="M638 740l-219 -471v-269h-189v269l-221 471h205l110 -297l111 297h203zM525 885l-246 -109l-47 98l240 129z" glyph-name="Yacute" horiz-adv-x="647" unicode="Ý"/>
<glyph d="M624 394q0 -94 -50 -163q-13 -18 -28 -31q-67 -57 -174 -63q-19 -1 -42 -1h-82v-136h-181v740h181v-97q13 0 40 1h39q129 0 190 -39q11 -8 20 -15q87 -74 87 -196zM443 391q0 76 -88 85q-17 2 -37 2h-70v-176h77q100 0 115 62q3 13 3 27z" glyph-name="Thorn" horiz-adv-x="636" unicode="Þ"/>
<glyph d="M660 228q0 -110 -85 -183q-75 -63 -173 -63q-86 0 -148 54q-15 12 -30 28v-64h-166v427q0 113 21 166q16 38 43 69q74 82 185 95q18 2 34 2q101 0 171 -65q63 -60 64 -144q-1 -82 -71 -129q84 -21 128 -95q27 -47 27 -98zM494 227q0 70 -71 88q-19 5 -41 5h-90v125h34 q56 0 77 42q7 16 7 34q0 57 -50 76q-18 7 -38 7q-80 0 -95 -90q-3 -18 -3 -36v-269h93q17 -65 72 -71q7 -1 14 -1q53 0 79 44q12 22 12 46z" glyph-name="germandbls" horiz-adv-x="694" unicode="ß"/>
<glyph d="M643 0h-166v60h-2q-34 -65 -130 -77q-17 -2 -32 -2q-138 0 -217 103q-62 81 -62 194q0 132 85 217q79 79 194 79q94 0 145 -56q10 -11 17 -22h2v59h166v-555zM477 278q0 78 -60 118q-36 23 -80 23q-76 0 -115 -63q-22 -36 -22 -80q0 -71 56 -113q37 -27 82 -27 q76 0 116 61q23 36 23 81zM479 711l-46 -97l-247 108l51 117z" glyph-name="agrave" horiz-adv-x="704" unicode="à"/>
<glyph d="M643 0h-166v60h-2q-34 -65 -130 -77q-17 -2 -32 -2q-138 0 -217 103q-62 81 -62 194q0 132 85 217q79 79 194 79q94 0 145 -56q10 -11 17 -22h2v59h166v-555zM477 278q0 78 -60 118q-36 23 -80 23q-76 0 -115 -63q-22 -36 -22 -80q0 -71 56 -113q37 -27 82 -27 q76 0 116 61q23 36 23 81zM519 730l-246 -109l-47 98l240 129z" glyph-name="aacute" horiz-adv-x="704" unicode="á"/>
<glyph d="M643 0h-166v60h-2q-34 -65 -130 -77q-17 -2 -32 -2q-138 0 -217 103q-62 81 -62 194q0 132 85 217q79 79 194 79q94 0 145 -56q10 -11 17 -22h2v59h166v-555zM477 278q0 78 -60 118q-36 23 -80 23q-76 0 -115 -63q-22 -36 -22 -80q0 -71 56 -113q37 -27 82 -27 q76 0 116 61q23 36 23 81zM559 640h-160l-46 58l-46 -58h-162l156 166h108z" glyph-name="acircumflex" horiz-adv-x="704" unicode="â"/>
<glyph d="M643 0h-166v60h-2q-34 -65 -130 -77q-17 -2 -32 -2q-138 0 -217 103q-62 81 -62 194q0 132 85 217q79 79 194 79q94 0 145 -56q10 -11 17 -22h2v59h166v-555zM477 278q0 78 -60 118q-36 23 -80 23q-76 0 -115 -63q-22 -36 -22 -80q0 -71 56 -113q37 -27 82 -27 q76 0 116 61q23 36 23 81zM555 688q-59 -37 -113 -37q-21 0 -101 18q-38 8 -59 8q-26 0 -72 -19l-60 88q61 35 110 35q24 0 100 -17q37 -8 62 -8q34 0 73 17z" glyph-name="atilde" horiz-adv-x="704" unicode="ã"/>
<glyph d="M643 0h-166v60h-2q-34 -65 -130 -77q-17 -2 -32 -2q-138 0 -217 103q-62 81 -62 194q0 132 85 217q79 79 194 79q94 0 145 -56q10 -11 17 -22h2v59h166v-555zM477 278q0 78 -60 118q-36 23 -80 23q-76 0 -115 -63q-22 -36 -22 -80q0 -71 56 -113q37 -27 82 -27 q76 0 116 61q23 36 23 81zM548 644h-159v151h159v-151zM315 644h-159v151h159v-151z" glyph-name="adieresis" horiz-adv-x="704" unicode="ä"/>
<glyph d="M643 0h-166v60h-2q-34 -65 -130 -77q-17 -2 -32 -2q-138 0 -217 103q-62 81 -62 194q0 132 85 217q79 79 194 79q94 0 145 -56q10 -11 17 -22h2v59h166v-555zM477 278q0 78 -60 118q-36 23 -80 23q-76 0 -115 -63q-22 -36 -22 -80q0 -71 56 -113q37 -27 82 -27 q76 0 116 61q23 36 23 81zM478 726q0 -64 -52 -102q-34 -24 -74 -24q-64 0 -102 52q-24 34 -24 74q0 64 52 102q34 24 74 24q64 0 102 -52q24 -34 24 -74zM396 727q0 29 -27 41q-9 3 -17 3q-30 0 -41 -28q-3 -9 -3 -17q0 -29 27 -40q9 -3 17 -3q29 0 40 27q4 9 4 17z" glyph-name="aring" horiz-adv-x="704" unicode="å"/>
<glyph d="M1059 267q0 -28 -4 -41h-417q11 -72 77 -96q24 -8 50 -8q58 0 102 46q3 4 6 7h167q-78 -178 -231 -192q-13 -1 -25 -1q-107 1 -155 73h-2v-55h-151v55h-2q-30 -55 -120 -70q-20 -3 -38 -3q-119 0 -202 91q-80 88 -80 204q0 133 87 218q81 79 199 79q69 0 120 -35 q24 -18 34 -38h2v54h151v-53h2q54 72 156 72q57 0 114 -27q114 -56 148 -187q12 -45 12 -93zM895 336q-28 96 -124 97q-69 0 -107 -47q-17 -23 -22 -50h253zM476 276q0 84 -64 123q-34 20 -77 20q-84 0 -120 -78q-1 -3 -2 -5q-13 -28 -13 -55q0 -79 60 -120q36 -24 81 -24 q73 0 112 60q23 36 23 79z" glyph-name="ae" horiz-adv-x="1091" unicode="æ"/>
<glyph d="M621 211q-29 -119 -130 -183q-65 -40 -142 -44l-20 -37q11 3 21 3q50 0 74 -47q11 -21 11 -44q0 -64 -56 -91q-26 -13 -56 -13q-70 0 -98 57q-8 18 -11 37h76q10 -27 33 -28q30 0 35 30q1 4 1 8q0 28 -26 33q-4 1 -8 1q-17 -1 -27 -15l-65 35l36 75q-119 24 -186 124 q-50 76 -50 167q0 127 88 213q85 82 205 82q129 0 216 -87q60 -61 78 -146h-168q-40 73 -124 74q-74 0 -109 -62q-19 -34 -19 -75q0 -79 57 -119q33 -22 75 -22q81 1 120 74h169z" glyph-name="ccedilla" horiz-adv-x="652" unicode="ç"/>
<glyph d="M614 271q0 -24 -4 -44h-416q10 -69 75 -95q26 -10 55 -10q60 1 101 52h170q-51 -119 -156 -167q-55 -25 -115 -25q-123 0 -210 88q-84 87 -84 206q0 123 85 210q86 88 206 88q132 0 217 -96q76 -87 76 -207zM448 339q-14 64 -77 87q-24 8 -49 8q-72 0 -108 -53 q-13 -20 -18 -42h252zM450 711l-46 -97l-247 108l51 117z" glyph-name="egrave" horiz-adv-x="646" unicode="è"/>
<glyph d="M614 271q0 -24 -4 -44h-416q10 -69 75 -95q26 -10 55 -10q60 1 101 52h170q-51 -119 -156 -167q-55 -25 -115 -25q-123 0 -210 88q-84 87 -84 206q0 123 85 210q86 88 206 88q132 0 217 -96q76 -87 76 -207zM448 339q-14 64 -77 87q-24 8 -49 8q-72 0 -108 -53 q-13 -20 -18 -42h252zM490 730l-246 -109l-47 98l240 129z" glyph-name="eacute" horiz-adv-x="646" unicode="é"/>
<glyph d="M614 271q0 -24 -4 -44h-416q10 -69 75 -95q26 -10 55 -10q60 1 101 52h170q-51 -119 -156 -167q-55 -25 -115 -25q-123 0 -210 88q-84 87 -84 206q0 123 85 210q86 88 206 88q132 0 217 -96q76 -87 76 -207zM448 339q-14 64 -77 87q-24 8 -49 8q-72 0 -108 -53 q-13 -20 -18 -42h252zM530 640h-160l-46 58l-46 -58h-162l156 166h108z" glyph-name="ecircumflex" horiz-adv-x="646" unicode="ê"/>
<glyph d="M614 271q0 -24 -4 -44h-416q10 -69 75 -95q26 -10 55 -10q60 1 101 52h170q-51 -119 -156 -167q-55 -25 -115 -25q-123 0 -210 88q-84 87 -84 206q0 123 85 210q86 88 206 88q132 0 217 -96q76 -87 76 -207zM448 339q-14 64 -77 87q-24 8 -49 8q-72 0 -108 -53 q-13 -20 -18 -42h252zM519 644h-159v151h159v-151zM286 644h-159v151h159v-151z" glyph-name="edieresis" horiz-adv-x="646" unicode="ë"/>
<glyph d="M226 0h-166v555h166v-555zM245 711l-46 -97l-247 108l51 117z" glyph-name="igrave" horiz-adv-x="286" unicode="ì"/>
<glyph d="M226 0h-166v555h166v-555zM335 730l-246 -109l-47 98l240 129z" glyph-name="iacute" horiz-adv-x="286" unicode="í"/>
<glyph d="M226 0h-166v555h166v-555zM350 640h-160l-46 58l-46 -58h-162l156 166h108z" glyph-name="icircumflex" horiz-adv-x="286" unicode="î"/>
<glyph d="M226 0h-166v555h166v-555zM339 644h-159v151h159v-151zM106 644h-159v151h159v-151z" glyph-name="idieresis" horiz-adv-x="286" unicode="ï"/>
<glyph d="M632 302q0 -141 -89 -233q-84 -86 -210 -86q-130 0 -217 88q-82 85 -82 205q0 124 79 207q74 78 183 78q76 -1 121 -47l2 2q-27 47 -97 93l-150 -45l-93 60l140 43q-55 25 -99 36l160 53q54 -14 101 -39l129 39l83 -64l-121 -37q160 -132 160 -353zM466 279q0 73 -52 115 q-33 26 -76 26q-73 0 -113 -59q-25 -37 -25 -82q0 -77 57 -117q34 -24 78 -24q75 0 111 64q20 35 20 77z" glyph-name="eth" horiz-adv-x="666" unicode="ð"/>
<glyph d="M574 0h-166v303q0 86 -44 107q-18 8 -43 8q-82 0 -93 -82q-2 -16 -2 -34v-302h-166v555h155v-59h2q49 78 151 78q72 0 130 -39q7 -5 12 -9q64 -54 64 -179v-347zM519 688q-59 -37 -113 -37q-21 0 -101 18q-38 8 -59 8q-26 0 -72 -19l-60 88q61 35 110 35q24 0 100 -17 q37 -8 62 -8q34 0 73 17z" glyph-name="ntilde" horiz-adv-x="632" unicode="ñ"/>
<glyph d="M632 278q0 -134 -94 -219q-85 -76 -205 -76q-135 0 -221 92q-78 83 -78 203q0 134 94 219q85 76 205 76q135 0 221 -92q78 -83 78 -203zM466 278q0 71 -54 113q-35 27 -79 27q-70 0 -109 -60q-24 -36 -24 -80q0 -71 54 -113q35 -27 79 -27q70 0 109 60q24 36 24 80z M460 711l-46 -97l-247 108l51 117z" glyph-name="ograve" horiz-adv-x="666" unicode="ò"/>
<glyph d="M632 278q0 -134 -94 -219q-85 -76 -205 -76q-135 0 -221 92q-78 83 -78 203q0 134 94 219q85 76 205 76q135 0 221 -92q78 -83 78 -203zM466 278q0 71 -54 113q-35 27 -79 27q-70 0 -109 -60q-24 -36 -24 -80q0 -71 54 -113q35 -27 79 -27q70 0 109 60q24 36 24 80z M500 730l-246 -109l-47 98l240 129z" glyph-name="oacute" horiz-adv-x="666" unicode="ó"/>
<glyph d="M632 278q0 -134 -94 -219q-85 -76 -205 -76q-135 0 -221 92q-78 83 -78 203q0 134 94 219q85 76 205 76q135 0 221 -92q78 -83 78 -203zM466 278q0 71 -54 113q-35 27 -79 27q-70 0 -109 -60q-24 -36 -24 -80q0 -71 54 -113q35 -27 79 -27q70 0 109 60q24 36 24 80z M540 640h-160l-46 58l-46 -58h-162l156 166h108z" glyph-name="ocircumflex" horiz-adv-x="666" unicode="ô"/>
<glyph d="M632 278q0 -134 -94 -219q-85 -76 -205 -76q-135 0 -221 92q-78 83 -78 203q0 134 94 219q85 76 205 76q135 0 221 -92q78 -83 78 -203zM466 278q0 71 -54 113q-35 27 -79 27q-70 0 -109 -60q-24 -36 -24 -80q0 -71 54 -113q35 -27 79 -27q70 0 109 60q24 36 24 80z M536 688q-59 -37 -113 -37q-21 0 -101 18q-38 8 -59 8q-26 0 -72 -19l-60 88q61 35 110 35q24 0 100 -17q37 -8 62 -8q34 0 73 17z" glyph-name="otilde" horiz-adv-x="666" unicode="õ"/>
<glyph d="M632 278q0 -134 -94 -219q-85 -76 -205 -76q-135 0 -221 92q-78 83 -78 203q0 134 94 219q85 76 205 76q135 0 221 -92q78 -83 78 -203zM466 278q0 71 -54 113q-35 27 -79 27q-70 0 -109 -60q-24 -36 -24 -80q0 -71 54 -113q35 -27 79 -27q70 0 109 60q24 36 24 80z M529 644h-159v151h159v-151zM296 644h-159v151h159v-151z" glyph-name="odieresis" horiz-adv-x="666" unicode="ö"/>
<glyph d="M378 403h-157v160h157v-160zM552 173h-504v160h504v-160zM378 -57h-157v160h157v-160z" glyph-name="divide" horiz-adv-x="600" unicode="÷"/>
<glyph d="M632 278q0 -135 -94 -220q-84 -76 -204 -76q-67 0 -121 23l-65 -88l-105 80l61 82q-68 81 -70 197q0 137 95 222q85 75 205 75q68 0 121 -23l61 83l107 -77l-62 -83q71 -86 71 -195zM466 278q0 29 -12 58l-146 -196q12 -3 25 -3q74 0 112 62q21 36 21 79zM361 415 q-13 3 -27 3q-72 0 -111 -60q-23 -37 -23 -80q0 -35 13 -62z" glyph-name="oslash" horiz-adv-x="666" unicode="ø"/>
<glyph d="M574 0h-157v59h-2q-38 -77 -144 -77q-106 1 -163 70q-45 55 -49 130q-1 17 -1 41v332h166v-307q0 -83 44 -103q19 -8 45 -8q86 0 94 95q1 9 1 18v305h166v-555zM409 711l-46 -97l-247 108l51 117z" glyph-name="ugrave" horiz-adv-x="634" unicode="ù"/>
<glyph d="M574 0h-157v59h-2q-38 -77 -144 -77q-106 1 -163 70q-45 55 -49 130q-1 17 -1 41v332h166v-307q0 -83 44 -103q19 -8 45 -8q86 0 94 95q1 9 1 18v305h166v-555zM519 730l-246 -109l-47 98l240 129z" glyph-name="uacute" horiz-adv-x="634" unicode="ú"/>
<glyph d="M574 0h-157v59h-2q-38 -77 -144 -77q-106 1 -163 70q-45 55 -49 130q-1 17 -1 41v332h166v-307q0 -83 44 -103q19 -8 45 -8q86 0 94 95q1 9 1 18v305h166v-555zM524 640h-160l-46 58l-46 -58h-162l156 166h108z" glyph-name="ucircumflex" horiz-adv-x="634" unicode="û"/>
<glyph d="M574 0h-157v59h-2q-38 -77 -144 -77q-106 1 -163 70q-45 55 -49 130q-1 17 -1 41v332h166v-307q0 -83 44 -103q19 -8 45 -8q86 0 94 95q1 9 1 18v305h166v-555zM513 644h-159v151h159v-151zM280 644h-159v151h159v-151z" glyph-name="udieresis" horiz-adv-x="634" unicode="ü"/>
<glyph d="M573 555l-278 -740h-176l88 213l-206 527h177l111 -322h2l106 322h176zM489 730l-246 -109l-47 98l240 129z" glyph-name="yacute" horiz-adv-x="574" unicode="ý"/>
<glyph d="M663 272q0 -126 -81 -211q-78 -80 -190 -80q-104 1 -167 69v-235h-166v925h166v-234q63 63 150 67h15q138 0 215 -107q58 -82 58 -194zM497 277q0 74 -58 115q-37 26 -82 26q-74 0 -115 -59q-25 -37 -25 -82q0 -74 58 -115q37 -26 82 -26q74 0 115 59q25 37 25 82z" glyph-name="thorn" horiz-adv-x="695" unicode="þ"/>
</font>
</defs>
</svg>
